Завантажити та скачати торренти українською


Єдина Країна!

Невідома Індія (випуски 1,5-6) / Wild India (1997) IPTVRemux

Нові коментарі

Нова тема   Відповісти
Завантажуючі та активність
Останній раз роздавалося КТП (2014-04-01)
Автор Повідомлення
ZAshiTe 
Частий відвідувач



З нами з: 23.11.11
Востаннє: 19.01.14
Повідомлень: 42

2011-12-08 14:34  
Невідома Індія (випуски 1,5-6) / Wild India (1997) IPTVRemux



Жанр: Документальний
Країна: Великобританія

Телеканал / кіностудія: BBC
Режисер: Валмік Тапар
Актори: Валмік Тапар

Сюжет:
Разом з Валміком Тапаром ми вирушимо незабутню подорож до Індії. Ми відвідаємо ліс Гір (північно-західне узбережжя) - останнє в світі місце проживання азіатських левів. Протягом 2000 років леви жили на одній території з людьми. Здається неймовірним, але азіатські леви терпляче і спокійно ставляться до людей. Можна сидіти на землі чи йти і лев не чіпатиме людини.
Ми звичайно ж побачимо символ природи індійського субконтиненту - тигра. Але не тільки тигри населяють цей великий субконтинент. Тут без праці могла б поміститися вся Європа. Адже відстань зі сходу на захід Індії не менше, ніж від Лондона до Стамбула.
З вологих лісів серця Індії ми вирушимо на захід до посушливих пустель Гуджарат і Раджастан. Випалені солцем луки трясуть від копит винторогих антилоп. Соляні озера відображають грім копит уланів.
З гарячої пустелі ми вирушимо на північ у холодні й пустельні Гімалаї. Можна подумати, що в крижаних обіймах цих вершин немає життя, але це не так. Ми пролетимо над ланцюгом цих гір разом з бороданів-ягнятник. У крижаних фортецях можна зустріти гірських козлів і тар, гімалайського Улара і вічного символу засніжених гір - сніжить барса.
Тут у горах беруть початок великі ріки Індії. Ми проследуем за Гангом від льодовиків до моря. По священним водам плавають величезна кількість риби. У покритих соковитою рослинністю берегах річок можна побачити різноманітних представників фауни. І серед них одного з найбільших і величних - слона. найбільші тигри переслідують носорогів, диких буйволів і барасінгів.
MediaInfo
C:\Documents and Settings\Андрей\Мои документы\Новая папка\Мега-20111208-113710.mpg
General
Complete name : C:\Documents and Settings\Андрей\Мои документы\Новая папка\Мега-20111208-113710.mpg
Format : MPEG-PS
File size : 1.53 GiB
Duration : 46mn 40s
Overall bit rate : 4 694 Kbps
Video #224
ID : 224 (0xE0)
Format : MPEG Video
Format version : Version 2
Format profile : Main@Main
Format settings, BVOP : Yes
Format settings, Matrix : Custom
Format settings, GOP : M=3, N=24
Duration : 46mn 39s
Bit rate : 4 409 Kbps
Maximum bit rate : 4 500 Kbps
Width : 720 pixels
Height : 576 pixels
Display aspect ratio : 4:3
Frame rate : 25.000 fps
Standard : PAL
Color space : YUV
Chroma subsampling : 4:2:0
Bit depth : 8 bits
Scan type : Interlaced
Scan order : Top Field First
Compression mode : Lossy
Bits/(Pixel*Frame) : 0.425
Stream size : 1.44 GiB (94%)
Audio #192
ID : 192 (0xC0)
Format : MPEG Audio
Format version : Version 1
Format profile : Layer 2
Duration : 46mn 40s
Bit rate mode : Constant
Bit rate : 192 Kbps
Channel(s) : 2 channels
Sampling rate : 48.0 KHz
Compression mode : Lossy
Delay relative to video : -408ms
Stream size : 64.1 MiB (4%)
Перелік серій
1 - Земля тигра
2 - ?
3 - ?
4 - ?
5 - Гори богів
6 - Мусонні ліси
Тривалість: 00:46:40
Якість: IPTVRip
Відео:
кодек: MPEG-2 DVD
розмір кадру: 720х576
бітрейт: 4 409 кб/с

Аудіо:
мова: українська
переклад: одноголосий закадровий
кодек: MPEG Audio
бітрейт: 192 кб/с
Скріншоти



Особиста оцінка: 10 - без зайвих вагань рекомендую всім!


Фріліч (завантажене не впливає на рейтинг)
 indiya.torrent 
 Трекер:    Зареєстрований   

Завантажити / скачати фільм українською



відео для новачків



 Зареєстрований:   2011-12-15 13:32
 Розмір:   4.67 GB 
 Подякували:   12    (список)
 Оцінка:   7.3/10 (Голосів: 3)
   
Список файлів завантаження
Папка: Новая папка
1 6 серія.mpg 1.58 GB
2 5 серія.mpg 1.56 GB
3 1 серія.mpg 1.53 GB

Гість







2011-12-14 13:50  
а 2-5 немає випусків?
ZAshiTe 
Частий відвідувач



З нами з: 23.11.11
Востаннє: 19.01.14
Повідомлень: 42

2011-12-14 13:52  
Будуть
kacher2 
Свій



З нами з: 02.10.10
Востаннє: 31.03.14
Повідомлень: 140

2011-12-14 17:06  
А хіба не Дика Індія - переклад? Чого переклав як невідома Індія?
ZAshiTe 
Частий відвідувач



З нами з: 23.11.11
Востаннє: 19.01.14
Повідомлень: 42

2011-12-14 17:08  
karvai0 
Відео Гуртом - запис з ТБ
Відео Гуртом - запис з ТБ



З нами з: 18.01.10
Востаннє: 20.04.14
Повідомлень: 3985

2012-04-16 20:13  
ZAshiTe написано:
Будуть

ну і? я б міг звести

_Slavik_ 
VIP



З нами з: 16.09.09
Востаннє: 20.04.14
Повідомлень: 529

2012-04-19 14:32  
karvai0 написано:
ну і? я б міг звести

якщо будеш зводити, то напиши, бо я планував взятися за це троши пізніше. Щоб даремно не робити 2 рази одне і те саме

karvai0 
Відео Гуртом - запис з ТБ
Відео Гуртом - запис з ТБ



З нами з: 18.01.10
Востаннє: 20.04.14
Повідомлень: 3985

2012-04-19 15:05  
_Slavik_
буду...Zevs Isver надасть записи

Stepan2009 
VIP



З нами з: 18.09.10
Востаннє: 19.04.14
Повідомлень: 370

2012-10-13 20:42  
Цитата:
_Slavik_
буду...Zevs Isver надасть записи

Ну і коли нарешті вже буде?
обіцялось ще з 2011р.

_Slavik_ 
VIP



З нами з: 16.09.09
Востаннє: 20.04.14
Повідомлень: 529

2012-10-14 13:03  
Stepan2009
Вже давно є. Ось тут

bot 
робот



З нами з: 30.09.07
Востаннє: 26.05.05
Повідомлень: 18805

2012-10-14 13:09  
Тему перенесено з BBC до форуму Архів відео

Причина перенесення: http://toloka.hurtom.com/viewtopic.php?t=36278
Tarasyk

Stepan2009 
VIP



З нами з: 18.09.10
Востаннє: 19.04.14
Повідомлень: 370

2012-10-15 21:45  
_Slavik_
Дякую. по пошуку чомусь мені не находило. Ще раз Дякую

Ваш часовий пояс: GMT + 2 Години

Нова тема   Відповісти




Український рейтинг TOP.TOPUA.NET