Завантажити та скачати торренти українською


Літачки / Planes (2013) BDRip-AVC

Нові коментарі

Нова тема   Відповісти
Завантажуючі та активність
Роздають: [ 66 ]
Завантажують: [ 1 ]
Автор Повідомлення
Drool 
VIP



З нами з: 17.04.10
Востаннє: 24.10.14
Повідомлень: 923

2013-12-04 00:29  
Літачки / Planes (2013) BDRip-AVC

Жанр: анімація, пригодницький, комедія, сімейний
Країна: США



Кінокомпанія: Walt Disney
Режисер: Клей Голл
Ролі озвучують: Дейн Кук, Стейсі Кіч, Бред Геррет, Тері Хетчер, Джулія Луіс-Дрейфус, Пріянка Чопра, Джон Кліз, Седрік "Розважальник", Карлос Алазракі, Роджер Крейґ Сміт

Сюжет:
Пилюк Вітрогон - скромний трудяга-літак, що працює сільськогосподарським розпилювачем на заштатному провінційному аеродромі. Однак це не заважає йому мріяти про те, щоб одного дня взяти участь в навколосвітніх перегонах найшвидших літаків. Одна невдача - Пилюк панічно боїться великої висоти. Тому, коли волею випадку він все ж потрапляє в число учасників відбіркового туру повітряних змагань, йому доводиться шукати допомоги у ветерана військово-морської авіації, відставного винищувача Капітана. За допомогою мудрого наставника Пилюк Вітрогон зможе подолати свої слабкості і кинути виклик гордовитому чемпіону, а весь світ із завмиранням серця стежити за перегонами в небесах!..


Тривалість: 01:31:35
Якість: BDRip-AVC
Відео:
кодек: H.264
розмір кадру: 1024x576
бітрейт: 2817 кб/с

Аудіо:
мова: українська
переклад: професійний дубльований
кодек: AC3 5.1
бітрейт: 384 кб/с
Джерело озвучення:

Субтитри:
мова: українська
тип: програмні (м'які) | форсовані
формат: *.srt
MediaInfo
General
Unique ID : 73215315660509658434864971729369139819 (0x3714C1C30203A8C69FE4040E79958A6B)
Complete name : /mnt/router/Torrents/Planes.2013.Ukr.Dub.BDRip-AVC.mkv
Format : Matroska
File size : 2.05 GiB
Duration : 1h 31mn
Overall bit rate : 3 202 Kbps
Movie name : Літачки / Planes (2013) BDRip-AVC | ExKinoRay | Rip by: ollan
Encoded date : UTC 2013-12-15 17:28:10
Writing application : mkvmerge v4.8.0 ('I Got The...') built on Aug 22 2011 13:16:28
Writing library : libebml v1.2.0 + libmatroska v1.1.0

Video
ID : 1
Format : AVC
Format/Info : Advanced Video Codec
Format profile : High@L4.1
Format settings, CABAC : Yes
Format settings, ReFrames : 9 frames
Format settings, GOP : M=12, N=24
Codec ID : V_MPEG4/ISO/AVC
Duration : 1h 31mn
Bit rate : 2 817 Kbps
Width : 1 024 pixels
Height : 576 pixels
Display aspect ratio : 16:9
Frame rate : 23.976 fps
Color space : YUV
Chroma subsampling : 4:2:0
Bit depth : 8 bits
Scan type : Progressive
Bits/(Pixel*Frame) : 0.199
Stream size : 1.76 GiB (86%)
Title : Літачки / Planes (2013) BDRip-AVC | ExKinoRay | Rip by: ollan
Writing library : x264 core 125 r2200 999b753
Encoding settings : cabac=1 / ref=9 / deblock=1:-2:-2 / analyse=0x3:0x133 / me=umh / subme=11 / psy=1 / psy_rd=1.00:0.10 / mixed_ref=1 / me_range=32 / chroma_me=1 / trellis=2 / 8x8dct=1 / cqm=0 / deadzone=21,11 / fast_pskip=0 / chroma_qp_offset=-3 / threads=12 / lookahead_threads=2 / sliced_threads=0 / nr=0 / decimate=0 / interlaced=0 / bluray_compat=0 / constrained_intra=0 / bframes=11 / b_pyramid=2 / b_adapt=2 / b_bias=0 / direct=3 / weightb=1 / open_gop=0 / weightp=2 / keyint=240 / keyint_min=23 / scenecut=40 / intra_refresh=0 / rc_lookahead=40 / rc=2pass / mbtree=1 / bitrate=2817 / ratetol=1.0 / qcomp=0.60 / qpmin=0 / qpmax=69 / qpstep=4 / cplxblur=20.0 / qblur=0.5 / vbv_maxrate=5000 / vbv_bufsize=62500 / nal_hrd=none / ip_ratio=1.40 / aq=1:1.00

Audio
ID : 2
Format : AC-3
Format/Info : Audio Coding 3
Mode extension : CM (complete main)
Codec ID : A_AC3
Duration : 1h 31mn
Bit rate mode : Constant
Bit rate : 384 Kbps
Channel(s) : 6 channels
Channel positions : Front: L C R, Side: L R, LFE
Sampling rate : 48.0 KHz
Bit depth : 16 bits
Compression mode : Lossy
Stream size : 252 MiB (12%)
Title : Рідна мова (DVD) AC3 5.1 384
Language : Ukrainian

Text
ID : 3
Format : UTF-8
Codec ID : S_TEXT/UTF8
Codec ID/Info : UTF-8 Plain Text
Title : Українські (форсовані)
Language : Ukrainian
Скріншоти




Джерело:
Особиста оцінка: 10 - без зайвих вагань рекомендую всім!
Величезна подяка пану antik_2008 за звукову доріжку!


 Planes.2013.Ukr.Dub.BDRip-AVC.mkv.torrent 
 Трекер:    Зареєстрований   

Завантажити / скачати мультфільм українською



відео для новачків



 Зареєстрований:   2013-12-15 20:56
 Розмір:   2.05 GB 
 Подякували:   303    (список)
 Оцінка мультфільму:   9.7/10 (Голосів: 61)
   
Список файлів завантаження
Файл: Planes.2013.Ukr.Dub.BDRip-AVC.mkv 2.05 GB
Інші релізи
   Літачки / Planes (2013) BDRip 1080p H.265/HEVC Ukr/Eng | Sub Ukr/Eng zed  16 / 0   2.93 GB   2014-09-14 12:52 
   Літачки / Planes (2013) DVD5 Quasar  1 / 0   4.36 GB   2014-07-29 14:06 
   Літачки / Planes (2013) BDRip Ukr/Eng | Sub Ukr/Eng omm  29 / 4   1.68 GB   2014-06-15 16:28 
   Літачки / Planes (2013) BDRip -_-B_E_N_D_E_R-_-  4 / 0   253 MB   2014-06-08 15:28 
   Літачки / Planes (2013) BDRip 1080p Ukr/Eng | Sub Ukr/Eng 11FrYkT  40 / 1   6.98 GB   2013-12-15 12:28 
   Літачки / Planes (2013) BDRip 720p Ukr/Eng | Sub Ukr/Eng 11FrYkT  20 / 0   4.55 GB   2013-12-15 12:04 
Drool 
VIP



З нами з: 17.04.10
Востаннє: 24.10.14
Повідомлень: 923

2013-12-04 00:31  
Велика подяка пану lnkvisitor за надані технічні засоби та інтернет-канал Happy
dimalozz 
Частий відвідувач



З нами з: 28.12.08
Востаннє: 23.10.14
Повідомлень: 42

2013-12-05 08:21  
Ну нарешті! Дякую!!!
Звук трохи дивний: коли в навушниках, то ніби з вуха на вухо проскакує на долі секунди. Не знаю як пояснити...

Drool 
VIP



З нами з: 17.04.10
Востаннє: 24.10.14
Повідомлень: 923

2013-12-05 16:14  
Такий звук на iTunes.
HeiKuroi 
Новенький



З нами з: 16.06.12
Востаннє: 01.09.14
Повідомлень: 7

2013-12-05 19:33  
Мульт цікавий. Но дуже видно, що був урізан бюджет тому не така смачна картинка і затяганий сюжет.
150015 
Новенький



З нами з: 08.10.13
Востаннє: 14.07.14
Повідомлень: 1

2013-12-06 14:43  
в мене чомусь не загачує?
Drool 
VIP



З нами з: 17.04.10
Востаннє: 24.10.14
Повідомлень: 923

2013-12-07 21:52  
150015 написано:
в мене чомусь не загачує?

Цитата:
Рейтинг: 0.01

Lil`Antoni 
Свій



З нами з: 25.02.12
Востаннє: 23.10.14
Повідомлень: 111

2013-12-12 11:54  
Я дивився по телевізору, то все гуд! . Досить якісно переклали. Нічого не проскакувало Wink (1)
Drool 
VIP



З нами з: 17.04.10
Востаннє: 24.10.14
Повідомлень: 923

2013-12-15 20:59  
Оновлено на ліцензійну доріжку на AC3 5.1, 384 kbps від DVD.
Dr.Yurko 
Свій



З нами з: 14.03.10
Востаннє: 18.10.14
Повідомлень: 112

2013-12-18 20:21  
Треба скачувати ще раз?
Drool 
VIP



З нами з: 17.04.10
Востаннє: 24.10.14
Повідомлень: 923

2013-12-20 19:10  
Dr.Yurko написано:
Треба скачувати ще раз?

Ну, якщо влаштовує та доріжка, що була (з iTunes) - то не обов'язково. Відеоряд той же самий.

НТН 
Відео Гуртом - фільмокрай
Відео Гуртом - фільмокрай



З нами з: 25.12.11
Востаннє: 07.08.14
Повідомлень: 1583

2013-12-24 11:50  
Який відеоряд? Рос. чи Англ.
Drool 
VIP



З нами з: 17.04.10
Востаннє: 24.10.14
Повідомлень: 923

2013-12-24 12:51  
НТН написано:
Який відеоряд? Рос. чи Англ.

А де це дивитись? Судячи з 1-го скріншота - як мінімум написи англійською. Я спеціально форсовані саби робив.

romarino 
Новенький



З нами з: 02.03.13
Востаннє: 06.04.14
Повідомлень: 2

2014-04-06 18:09  
Дуже дякую за якістний реліз!
Особливо за правильно записану українську дорожку в MKV, де увімкнені флаги "дорожка за промовчанням" та "дорожка увімкнена"!
Мій ТВ лише такі розуміє!

Ovsej 
Новенький



З нами з: 21.03.13
Востаннє: 24.08.14
Повідомлень: 1

2014-04-11 10:56  
щиро вдячний, автору моє шануваннячко, дочка в захваті!
котермак 
Частий відвідувач



З нами з: 16.08.11
Востаннє: 14.10.14
Повідомлень: 36

2014-04-20 14:19  
Вельми вдячні !!!
Ваш часовий пояс: GMT + 2 Години

Нова тема   Відповісти




Лічильник