Завантажити та скачати торренти українською


Старперці / Last Vegas (2013) BDRip 720p Ukr/Eng

Нові коментарі

Нова тема   Відповісти
Завантажуючі та активність
Роздають: [ 23 ]
Автор Повідомлення
Sando7 
Відео Гуртом - запис з ТБ
Відео Гуртом - запис з ТБ



З нами з: 04.05.09
Востаннє: 29.11.14
Повідомлень: 644

2014-01-11 08:08  
Старперці / Last Vegas (2013) BDRip 720p Ukr/Eng


Старперці / Last Vegas (2013) BDRip 720p Ukr/Eng


Жанр: комедія
Країна: США



Кінокомпанія: CBS Films, Gidden Media, Good Universe
Режисер: Джон Тертелтауб / Jon Turteltaub
Актори: Роберт Де Ніро / Robert De Niro, Морґан Фрімен / Morgan Freeman, Майкл Дуґлас / Michael Douglas, Кевін Клайн / Kevin Kline, Мері Стінберґен / Mary Steenburgen, Джеррі Феррара / Jerry Ferrara, Роджер Барт / Roger Bart та інші

Сюжет:
Знайомтесь, це — Старперці — оскароносні та легендарні Роберт де Ніро, Морґан Фрімен, Майкл Дуґлас і Кевін Клайн, вони ж Біллі, Педді, Арчі та Сем — четвірка друзів-нерозлийвода з дитинства. Коли закоренілий холостяк Біллі (Майкл Дуґлас) нарешті робить пропозицію своїй молодій дівчині, товариші вирушають на холостяцьку вечірку не куди-небудь, а звичайно ж до Лас-Веґаса. Перед вами — остання холостяцька вечірка у Веґасі, тільки цього разу без молодиків. Це грандіозна голлівудська вечірка по-дорослому, в якій Лас-Веґас, що змінився до невпізнанності за довгі роки, перевірить дружбу героїв на міцність найдивовижнішим чином...


Тривалість: 01:44:59
Якість: BDRip
кодек: H.264
розмір кадру: 1280x536
бітрейт: 4442 кб/с

Аудіо # 1:
мова: українська
переклад: багатоголосий закадровий
кодек: AC3 2.0
бітрейт: 192 кб/с

Аудіо # 2:
мова: англійська
переклад: оригінал
кодек: AC3 5.1
бітрейт: 640 кб/с

Субтитри:
мова: англійська
тип: програмні (м'які)
формат: *.srt
MediaInfo

Format : Matroska
Format version : Version 1
File size : 3.87 GiB
Duration : 1h 44mn
Overall bit rate : 5 277 Kbps
Encoded date : UTC 2014-01-11 22:24:07
Writing application : mkvmerge v2.4.1 ('Use Me') built on Dec 5 2008 18:30:05
Writing library : libebml v0.7.7 + libmatroska v0.8.1

Video
ID : 1
Format : AVC
Format/Info : Advanced Video Codec
Format profile : High@L3.1
Format settings, CABAC : Yes
Format settings, ReFrames : 5 frames
Codec ID : V_MPEG4/ISO/AVC
Duration : 1h 44mn
Bit rate : 4 442 Kbps
Width : 1 280 pixels
Height : 536 pixels
Display aspect ratio : 2.40:1
Frame rate mode : Constant
Frame rate : 23.976 fps
Color space : YUV
Chroma subsampling : 4:2:0
Bit depth : 8 bits
Scan type : Progressive
Bits/(Pixel*Frame) : 0.270
Stream size : 3.18 GiB (82%)
Writing library : x264 core 140 r2377 1ca7bb9
Encoding settings : cabac=1 / ref=5 / deblock=1:0:0 / analyse=0x3:0x133 / me=umh / subme=7 / psy=1 / psy_rd=1.00:0.00 / mixed_ref=1 / me_range=16 / chroma_me=1 / trellis=1 / 8x8dct=1 / cqm=0 / deadzone=21,11 / fast_pskip=0 / chroma_qp_offset=-2 / threads=18 / lookahead_threads=3 / sliced_threads=0 / nr=0 / decimate=1 / interlaced=0 / bluray_compat=0 / constrained_intra=0 / bframes=3 / b_pyramid=2 / b_adapt=2 / b_bias=0 / direct=3 / weightb=1 / open_gop=0 / weightp=2 / keyint=250 / keyint_min=23 / scenecut=40 / intra_refresh=0 / rc_lookahead=50 / rc=2pass / mbtree=1 / bitrate=4442 / ratetol=1.0 / qcomp=0.60 / qpmin=0 / qpmax=69 / qpstep=4 / cplxblur=20.0 / qblur=0.5 / ip_ratio=1.40 / aq=1:1.00
Language : English
Default : Yes
Forced : No

Audio #1
ID : 2
Format : AC-3
Format/Info : Audio Coding 3
Mode extension : CM (complete main)
Format settings, Endianness : Big
Codec ID : A_AC3
Duration : 1h 44mn
Bit rate mode : Constant
Bit rate : 192 Kbps
Channel count : 2 channels
Channel positions : Front: L R
Sampling rate : 48.0 KHz
Bit depth : 16 bits
Compression mode : Lossy
Stream size : 144 MiB (4%)
Title : Ukr_Line
Language : Ukrainian
Default : Yes
Forced : No

Audio #2
ID : 3
Format : AC-3
Format/Info : Audio Coding 3
Mode extension : CM (complete main)
Format settings, Endianness : Big
Codec ID : A_AC3
Duration : 1h 44mn
Bit rate mode : Constant
Bit rate : 640 Kbps
Channel count : 6 channels
Channel positions : Front: L C R, Side: L R, LFE
Sampling rate : 48.0 KHz
Bit depth : 16 bits
Compression mode : Lossy
Stream size : 481 MiB (12%)
Default : No
Forced : No

Text
ID : 4
Format : UTF-8
Codec ID : S_TEXT/UTF8
Codec ID/Info : UTF-8 Plain Text
Language : English
Default : Yes
Forced : No

Menu
00:00:00.000 : en:00:00:00.000
00:03:03.392 : en:00:03:03.392
00:10:25.458 : en:00:10:25.458
00:20:38.863 : en:00:20:38.863
00:29:31.103 : en:00:29:31.103
00:41:30.154 : en:00:41:30.154
00:49:40.060 : en:00:49:40.060
00:57:18.977 : en:00:57:18.977
01:05:28.633 : en:01:05:28.633
01:10:08.079 : en:01:10:08.079
01:14:33.302 : en:01:14:33.302
01:18:06.682 : en:01:18:06.682
01:21:23.378 : en:01:21:23.378
01:27:03.135 : en:01:27:03.135
01:34:43.386 : en:01:34:43.386
01:40:51.045 : en:01:40:51.045
Скріншоти





Джерело:


 Last Vegas (2013) BDRip 720p [Ukr.Eng] [Hurtom].mkv.torrent 
 Трекер:    Зареєстрований   

Завантажити / скачати фільм українською



відео для новачків



 Зареєстрований:   2014-01-12 00:34
 Розмір:   3.87 GB 
 Подякували:   197    (список)
 Оцінка фільму:   9.4/10 (Голосів: 35)
   
Список файлів завантаження
Файл: Last Vegas (2013) BDRip 720p [Ukr.Eng] [Hurtom].mkv 3.87 GB
Інші релізи
   Старперці / Last Vegas (2013) DVD5 Ukr/Eng | Sub Ukr/Eng/Rus kinoreliz  1 / 0   4.18 GB   2014-02-24 10:06 
   Старперці / Last Vegas (2013) BDRip-AVC patriot2305  9 / 0   1.67 GB   2014-01-19 19:51 
   Старперці / Last Vegas (2013) BDRip patriot2305  39 / 0   1.44 GB   2014-01-11 23:49 
dino1996 
Новенький



З нами з: 08.11.12
Востаннє: 09.11.14
Повідомлень: 10

2014-01-11 18:04  
коли реліз !!!
seroga13 
Поважний учасник



З нами з: 22.06.09
Востаннє: 27.11.14
Повідомлень: 226

2014-01-11 21:55  
О,чекаю!Класний акторський склад!
bot 
робот



З нами з: 30.09.07
Востаннє: 26.05.05
Повідомлень: 12501

2014-01-12 00:34  
Тему перенесено з Анонси релізів до форуму Фільми в HD


Sando7

gekan_ 
Новенький



З нами з: 24.10.13
Востаннє: 13.09.14
Повідомлень: 12

2014-01-12 01:22  
Тут багатоголосий закадровий!!! Виправте!
lesukpesuk 
Новенький



З нами з: 22.02.11
Востаннє: 27.11.14
Повідомлень: 3

2014-01-12 17:48  
ураааа))))
Mitya_GUNNER 
Свій



З нами з: 15.10.12
Востаннє: 28.11.14
Повідомлень: 128

2014-01-12 21:06  
8 з 10. Чудовий фільм. Де Ніро, Дуглас і Фрімен як завжди на висоті.
waldi-hurtom 
VIP



З нами з: 07.10.12
Востаннє: 28.11.14
Повідомлень: 489

2014-01-28 19:56  
Нічогенька комедія, один раз можна подивитись. Хоча молоді, мабуть, здасться занудною. 7 балів. Дякую за реліз.
drtato 
Свій



З нами з: 28.10.10
Востаннє: 29.11.14
Повідомлень: 75

2014-02-27 20:03  
Ні, хлопці! Я даю 10 з 10. З величезним задоволенням подивився цей фільм! Рекомендую.
ProgBassing 
Відео Гуртом - фільмокрай
Відео Гуртом - фільмокрай



З нами з: 08.03.08
Востаннє: 29.11.14
Повідомлень: 556

2014-03-09 11:15  
На місці творців цого "дива", я би не випускав цей фільм - ганьба якась...

ТАКІ актори і таке кіно, тупо розчарування: нуль оригінальності, гри, задуму як такого взагалі...
Склалося враження що фільм знято для себе, а не для людей Neutral

Переклад теж мутний якийсь :/

Ваш часовий пояс: GMT + 2 Години

Нова тема   Відповісти




Лічильник